#TITLE:Listen To Your Heart;
#SUBTITLE:-Furious Trance Mix-;
#ARTIST:DHT;
#TITLETRANSLIT:;
#SUBTITLETRANSLIT:;
#ARTISTTRANSLIT:;
#CREDIT:;
#BANNER:Banner.png;
#BACKGROUND:Background.png;
#LYRICSPATH:;
#CDTITLE:cd title.png;
#MUSIC:Listen To Your Heart.mp3;
#OFFSET:-0.050;
#SAMPLESTART:79.503;
#SAMPLELENGTH:12.000;
#SELECTABLE:YES;
#DISPLAYBPM:145.000;
#BPMS:0.000=145.005,96.000=72.505,128.000=145.005,224.000=72.505;
#STOPS:;
#BGCHANGES:;
// cache tags:
#FIRSTBEAT:0.000;
#LASTBEAT:240.000;
#SONGFILENAME:Songs/Music V.I.P ^_^/Listen To Your Heart- Max Simpson/Listen To Your Heart.sm;
#HASMUSIC:1;
#HASBANNER:1;
#MUSICLENGTH:123.219;
// end cache tags

//---------------dance-single - ----------------
#NOTES:
     dance-single:
     :
     Hard:
     10:
     0.853,0.925,1.000,0.284,0.625,545.000,156.000,35.000,0.000,5.000:

1001
0100
0010
1000
0001
0100
0011
0100
,
1000
0010
0100
0010
0001
0100
1000
0001
,
1010
0100
0010
1000
0010
1000
0101
0010
,
1000
0100
0001
0100
0010
0001
1000
0010
,
0110
1000
0100
1000
0100
1000
1001
0100
,
0010
0100
0010
0100
0010
0100
0010
0100
,
0011
1000
0010
1000
0010
1000
1100
0100
,
0010
0001
0010
0001
0010
0001
0010
0001
0010
0001
0010
0001
0010
0001
0010
0001
,
0010
0110
1000
0011
0100
1010
0001
1001
,
0010
0101
1000
0110
0001
1100
0010
1001
,
0100
0011
1000
1100
0010
1010
0001
0110
,
1000
0100
0010
0001
1000
0100
0010
0001
1000
0100
0010
0001
1000
0100
0010
0001
,
1000
0011
1000
0011
0100
1010
0100
1010
,
0001
1100
0001
1100
0010
0101
0010
0101
,
1000
0011
1000
0011
0100
1010
0100
1010
,
1000
0001
0010
0100
1000
0001
0010
0100
1000
0001
0010
0100
1000
0001
0010
0100
,
1000
0001
1001
1000
1001
0100
0110
0010
,
0110
1000
1100
0100
1100
0001
0011
0010
,
0011
0100
0101
0001
0101
0010
1010
1000
,
0010
1000
0001
0100
0010
1000
0001
0100
0010
1000
0001
0100
0010
1000
0001
0100
,
0110
1100
0011
0101
0110
1001
0110
0011
,
1100
0110
1010
1001
0011
0110
1001
1010
,
1000
0010
1000
0100
1000
0010
1000
0100
1000
0010
1000
0100
1000
0010
1000
0100
,
1000
0010
1000
0100
1000
0010
1000
0010
1000
0100
1000
0010
1000
0100
1000
0010
,
2002
0000
0000
0000
0000
0000
3223
0000
0000
0000
0000
0000
0000
0000
0000
0330
,
2200
0000
0000
0000
0000
0000
3322
0000
0000
0000
0000
0033
0100
0010
1000
0001
,
2020
0000
0000
0000
0000
3030
0202
0000
0000
0000
0000
1303
0010
0100
0000
0000
,
0002
0000
0020
0000
0203
0000
2030
0000
0300
0000
3000
0000
0010
0001
0000
0000
,
2000
0000
0200
3000
0020
0300
0031
2000
0000
0000
0000
3000
0000
0000
2000
0000
,
0020
3000
0200
0030
0002
0300
0020
0000
0000
0000
0000
0033
0100
0010
1000
0001
,
0220
0000
0000
0000
0000
0330
2002
0000
0000
0000
0000
0000
3003
0000
0000
0000
,
2002
0000
0000
0000
0000
0000
0000
3003
,
0100
0010
0000
0100
0000
0010
0100
0000
0010
0000
0100
0000
0010
0000
0100
0000
,
1000
0001
0000
1000
0000
0001
1000
0000
0001
0000
1000
0000
0001
0000
1000
0000
,
0001
0100
0000
0001
0000
0100
0001
0000
0100
0000
0001
0000
0100
0000
0001
0000
,
1000
0100
0000
1000
0000
0100
1000
0000
0100
0000
1000
0000
0100
0000
1000
0000
,
0100
0010
0000
0100
0000
0010
0100
0000
0010
0000
0100
0000
0010
0000
0100
0000
,
1000
0001
0000
1000
0000
0001
1000
0000
0001
0000
1000
0000
0001
0000
1000
0000
,
0101
0001
0000
0100
0000
0001
0100
0000
0001
0000
0100
0000
0001
0000
0100
0000
,
0101
0000
0011
0000
0101
0011
1010
0101
,
1001
0100
0000
1001
0000
0100
0010
0000
1001
0000
0110
0000
1001
0000
0110
0000
,
1100
0001
0000
0100
0000
0001
0100
0000
1100
0000
0011
0000
1100
0000
0011
0000
,
0101
0100
0000
1010
0000
0010
0010
0000
0101
0000
1010
0000
0101
0000
1010
0000
,
0011
0001
0000
1100
0000
0001
0100
0000
0011
0000
1100
0000
0011
0000
1100
0000
,
1001
1000
0000
0101
0000
0100
0100
0000
1001
0000
0101
0000
1001
0000
0101
0000
,
0110
0010
0000
1100
0000
0100
0100
0000
0110
0000
1100
0000
0110
0000
1100
0000
,
0011
0001
0000
0101
0000
0100
0100
0000
0011
0000
0101
0000
0011
0000
0101
0000
,
0110
0100
0000
1001
0000
1000
1000
0000
0110
0000
1001
0000
0110
0000
1001
0000
,
0001
1000
0100
0010
0001
1000
0010
0100
0001
1000
0001
1000
0100
0010
0001
1000
,
0100
0010
0001
1000
0010
0100
0001
0010
0100
1000
0001
1000
0001
0010
0100
1000
,
0001
0010
0001
0010
0001
0010
0001
0010
0100
1000
0100
1000
0100
1000
0100
1000
,
0010
1000
0010
1000
0010
1000
0010
1000
0010
0100
0010
0100
0010
0100
0010
0100
,
1001
1001
0000
1001
0000
0110
1001
0000
0110
0000
1001
0000
0110
0000
1001
0000
,
1100
1100
0000
1100
0000
0101
1100
0000
0101
0000
1100
0000
0101
0000
1100
0000
,
0110
0110
0000
0110
0000
1010
0110
0000
0110
0000
1100
0000
0110
0000
1100
0000
,
0010
1000
0010
1000
0010
1000
0010
1000
0010
1000
0010
1000
0010
1000
0010
1000
,
1001
0100
0010
1100
0000
0001
0000
0010
,
1100
0010
0100
0202
0000
0000
0000
0303
,
1000
0100
0010
0001
0010
0100
1001
0000
0000
0000
0000
0000
0000
0000
1000
0010
,
2020
0000
0000
0000
0000
0000
0000
3030
,
0101
0000
0000
0000
;
